Форум фильмов, сериалов и мультфильмов

Объявление

Информация о пользователе

Привет, Гость! Войдите или зарегистрируйтесь.


Вы здесь » Форум фильмов, сериалов и мультфильмов » Все о кино » Флудилка про Видеоновинки на DVD и Blu-Ray (Часть вторая)


Флудилка про Видеоновинки на DVD и Blu-Ray (Часть вторая)

Сообщений 691 страница 720 из 991

691

ЭL написал(а):

Охотники на ведьм / Hansel & Gretel: Witch Hunters DVD5

Отредактировано ЭL (Сегодня 17:45:58)

Посмотрим...На португальском :)

З.Ы.  Video Quality: DVD-R - БОМБА  http://savepic.net/424010.gif

Отредактировано The showman (05.05.2013 22:12:51)

0

692

Линкольн / Lincoln (2012) DVD9 - IRONCLUB

Отредактировано besa123 (05.05.2013 22:11:42)

+4

693

Паркер / Parker (2013/BD-Remux/BDRip/HDRip) - эпидем
Лицензия

+2

694

Quartet 2012 BluRay 1080p AVC DTS-HD MA5.1 - CHDBits, HDWinG
Квартет

DISC INFO:

Disc Title:     Quartet 2012 1080p Blu-ray AVC DTS-HD MA 5.1-HDWinG
Disc Size:      45,935,925,833 bytes
Protection:     AACS
BD-Java:        No
Extras:         50Hz Content
BDInfo:         0.5.8

PLAYLIST REPORT:

Name:                   00000.MPLS
Length:                 1:38:11.468 (h:m:s.ms)
Size:                   27,408,768,192 bytes
Total Bitrate:          37.22 Mbps

VIDEO:

Codec                   Bitrate             Description     
-----                   -------             -----------     
MPEG-4 AVC Video        28437 kbps          1080p / 23.976 fps / 16:9 / High Profile 4.1

AUDIO:

Codec                           Language        Bitrate         Description     
-----                           --------        -------         -----------     
DTS-HD Master Audio             English         2845 kbps       5.1 / 48 kHz / 2845 kbps / 24-bit (DTS Core: 5.1 / 48 kHz / 768 kbps / 24-bit)
LPCM Audio                      English         1536 kbps       2.0 / 48 kHz / 1536 kbps / 16-bit
LPCM Audio                      English         2304 kbps       2.0 / 48 kHz / 2304 kbps / 24-bit

SUBTITLES:

Codec                           Language        Bitrate         Description     
-----                           --------        -------         -----------     
Presentation Graphics           English         49.544 kbps                     

FILES:

Name            Time In         Length          Size            Total Bitrate   
----            -------         ------          ----            -------------   
00000.M2TS      0:00:00.000     1:38:11.468     27,408,768,192  37,218

Отредактировано besa123 (06.05.2013 21:29:57)

0

695

Маньяк / Maniac (2012) Blu-ray 1080p AVC TrueHD 7.1 - hdclub.

+1

696

Dark.Skies.2013.720p.BluRay.x264-SPARKS
+ Dark Skies 2013 1080p Blu-ray AVC DTS-HD MA 5.1-HDWinG
+ Мрачные небеса / Dark Skies (2013/BDRip/HDRip) эпидем

Отредактировано sstonecold (07.05.2013 04:19:37)

+1

697

Смерть шпионам: Операция «Лисья нора»---DVDRip- (Youtracker)
Смерть шпионам! Операция «Ударная волна»---DVDRip- (Youtracker)

0

698

Охотники на ведьм / Hansel & Gretel: Witch Hunters (2013/DVDRip) - эпидем
Озвучивание: Дублированное [Чистый звук]

+2

699

Побочный эффект / Side Effects (2013/WEB-DLRip) - эпидем ЛИЦЕНЗИЯ!

0

700

Ванамах
так ведь была уже лицуха...на двд...

0

701

zombie33rus
если еще не вкурсе то качество на вебдл 90% как на БД

0

702

Даю год / I Give It a Year (2013) Blu-ray 1080p AVC DTS 5.1 HDCLUB

0

703

Преступления сладострастия / Crimenes de Lujuria (2011) DVD5 - IRONCLUB

Отредактировано besa123 (07.05.2013 21:37:56)

0

704

Легенда №17 (2013) DVDScr.
айронклуб

+1

705

sstonecold написал(а):

Легенда №17 (2013) DVDScr.
айронклуб

Хорош...уже скринеры начали отписывать, так и до камрипов недалеко http://savepic.net/421964.gif

+1

706

besa123 написал(а):

Хорош...уже скринеры начали отписывать, так и до камрипов недалеко

на самом деле  эта WEB-DLRip...

0

707

DIOGYK написал(а):

на самом деле  эта WEB-DLRip...

WEBRip

0

708

BZzz написал(а):

WEBRip

один хрен, кто не понимал понял что я имел ввиду...

+1

709

Stand Up Guys 2012 1080p Blu-ray AVC DTS-HD MA 5.1-HDWinG

DISC INFO

DISC INFO:

Disc Title:     Stand.Up.Guys.2012.1080p.Blu-ray.AVC.DTS-HDMA5.1-HDWinG
Disc Size:      32,959,036,083 bytes
Protection:     AACS
BD-Java:        Yes
BDInfo:         0.5.8

PLAYLIST REPORT:

Name:                   00000.MPLS
Length:                 1:34:58.567 (h:m:s.ms)
Size:                   26,073,612,288 bytes
Total Bitrate:          36.60 Mbps

VIDEO:

Codec                   Bitrate             Description     
-----                   -------             -----------     
MPEG-4 AVC Video        29996 kbps          1080p / 23.976 fps / 16:9 / High Profile 4.1

AUDIO:

Codec                           Language        Bitrate         Description     
-----                           --------        -------         -----------     
DTS-HD Master Audio             English         3516 kbps       5.1 / 48 kHz / 3516 kbps / 24-bit (DTS Core: 5.1 / 48 kHz / 1509 kbps / 24-bit)
Dolby Digital Audio             Spanish         448 kbps        5.1 / 48 kHz / 448 kbps
Dolby Digital Audio             English         640 kbps        2.0 / 48 kHz / 640 kbps

SUBTITLES:

Codec                           Language        Bitrate         Description     
-----                           --------        -------         -----------     
Presentation Graphics           English         36.005 kbps                     
Presentation Graphics           English         39.048 kbps                     
Presentation Graphics           Spanish         33.919 kbps                     

FILES:

Name            Time In         Length          Size            Total Bitrate   
----            -------         ------          ----            -------------   
00002.M2TS      0:00:00.000     1:34:58.567     26,073,612,288  36,604

0

710

The Last Stand 2013 1080p US Blu-ray AVC DTS-HD MA 7.1 - HDWinG
Возвращение героя

DISC INFO:

Disc Title:     THE_LAST_STAND_HDWING
Disc Size:      59,969,576,446 bytes
Protection:     AACS
BD-Java:        Yes
BDInfo:         0.5.8

PLAYLIST REPORT:

Name:                   00460.MPLS
Length:                 1:48:13.320 (h:m:s.ms)
Size:                   33,794,758,656 bytes
Total Bitrate:          41.64 Mbps

VIDEO:

Codec                   Bitrate             Description     
-----                   -------             -----------     
MPEG-4 AVC Video        33718 kbps          1080p / 23.976 fps / 16:9 / High Profile 4.1

AUDIO:

Codec                           Language        Bitrate         Description     
-----                           --------        -------         -----------     
DTS-HD Master Audio             English         5108 kbps       7.1 / 48 kHz / 5108 kbps / 24-bit (DTS Core: 5.1 / 48 kHz / 1509 kbps / 24-bit)
Dolby Digital Audio             Spanish         640 kbps        5.1 / 48 kHz / 640 kbps

SUBTITLES:

Codec                           Language        Bitrate         Description     
-----                           --------        -------         -----------     
Presentation Graphics           English         26.308 kbps                     
Presentation Graphics           English         30.641 kbps                     
Presentation Graphics           Spanish         25.091 kbps                     

FILES:

Name            Time In         Length          Size            Total Bitrate   
----            -------         ------          ----            -------------   
00504.M2TS      0:00:00.000     0:03:33.046     1,038,262,272   38,987         
03875.M2TS      0:03:33.046     0:01:00.060     75,608,064      10,071         
00505.M2TS      0:04:33.106     0:12:11.063     3,969,183,744   43,435         
00506.M2TS      0:16:44.169     0:20:45.035     6,843,297,792   43,972         
00507.M2TS      0:37:29.205     0:00:23.982     127,850,496     42,648         
00511.M2TS      0:37:53.187     0:18:00.454     6,071,064,576   44,952         
00517.M2TS      0:55:53.641     0:00:25.108     138,264,576     44,054         
00515.M2TS      0:56:18.750     0:00:22.647     123,457,536     43,610         
00508.M2TS      0:56:41.397     0:00:20.020     108,834,816     43,490         
00501.M2TS      0:57:01.417     0:00:32.532     178,716,672     43,948         
00513.M2TS      0:57:33.950     0:29:28.600     9,469,790,208   42,835         
00502.M2TS      1:27:02.550     0:00:24.691     135,800,832     44,000         
00518.M2TS      1:27:27.241     0:00:28.319     155,553,792     43,942         
00503.M2TS      1:27:55.561     0:00:35.577     192,872,448     43,370         
00509.M2TS      1:28:31.139     0:00:22.856     125,429,760     43,902         
00512.M2TS      1:28:53.995     0:19:19.324     5,040,771,072   34,784

0

711

Джек Ричер / Jack Reacher (2012) DVD9 - Youtracker

+2

712

Side Effects 2013 1080p Blu-ray AVC DTS-HD MA 5.1 - HDWinG
Побочный эффект

DISC INFO:

Disc Title:     SIDE_EFFECTs
Disc Size:      36,105,773,320 bytes
Protection:     AACS
BD-Java:        Yes
BDInfo:         0.5.8

PLAYLIST REPORT:

Name:                   00800.MPLS
Length:                 1:46:22.501 (h:m:s.ms)
Size:                   30,882,502,656 bytes
Total Bitrate:          38.71 Mbps

VIDEO:

Codec                   Bitrate             Description     
-----                   -------             -----------     
MPEG-4 AVC Video        33035 kbps          1080p / 23.976 fps / 16:9 / High Profile 4.1

AUDIO:

Codec                           Language        Bitrate         Description     
-----                           --------        -------         -----------     
DTS-HD Master Audio             English         3626 kbps       5.1 / 48 kHz / 3626 kbps / 24-bit (DTS Core: 5.1 / 48 kHz / 1509 kbps / 24-bit)

SUBTITLES:

Codec                           Language        Bitrate         Description     
-----                           --------        -------         -----------     
Presentation Graphics           English         46.256 kbps                     
Presentation Graphics           Spanish         40.452 kbps                     
Presentation Graphics           French          41.690 kbps

+1

713

Пушки, телки и азарт / Guns, Girls and Gambling (2011) HDRip ганг / эпидем
чистый звук

Идеальный голос / Pitch Perfect (2012/BDRip/HDRip) эпидем
лицензия

Отредактировано sstonecold (09.05.2013 20:41:00)

+2

714

Идеальный голос / Pitch Perfect (2012/BDRip/HDRip) эпидем
лицензия

Источник IRONCLUB.

Отредактировано besa123 (09.05.2013 21:09:02)

0

715

besa123 написал(а):

Источник IRONCLUB.

на эпидеме намного раньше появилось, так что источник эпидем

0

716

sstonecold написал(а):

на эпидеме намного раньше появилось, так что источник эпидем

На эпидеме залили аплоадеры IRONCLUB'A, т.е. источних их.

0

717

besa123
и что???
Идеальный голос / Pitch Perfect (2012/BDRip/HDRip) эпидем - залили аплоадеры айронклаба, ждите релиз скоро у них на трекеры, так мне надо было написать или что?

0

718

Идеальный голос / Pitch Perfect (2012) Blu-Ray - айрон.

0

719

sstonecold написал(а):

besa123
и что???
Идеальный голос / Pitch Perfect (2012/BDRip/HDRip) эпидем - залили аплоадеры айронклаба, ждите релиз скоро у них на трекеры, так мне надо было написать или что?

Что за чушь вы несете то?
Я просто указал релиз источника, и ничего больше.

0

720

besa123
чушь ты, как раз, несешь

0


Вы здесь » Форум фильмов, сериалов и мультфильмов » Все о кино » Флудилка про Видеоновинки на DVD и Blu-Ray (Часть вторая)